<?xml version="1.0" standalone="no"?>
<!DOCTYPE svg PUBLIC "-//W3C//DTD SVG 1.1//EN" "http://www.w3.org/Graphics/SVG/1.1/DTD/svg11.dtd">
<svg xmlns="http://www.w3.org/2000/svg">
    <defs>
        <font id="Karla" horiz-adv-x="1049">
            <font-face
                    font-family="Karla"
                    units-per-em="2000"
                    panose-1="2 11 0 4 3 5 3 3 0 3"
                    ascent="1834"
                    descent="-504"
                    alphabetic="0"/>
            <glyph unicode=" " horiz-adv-x="475"/>
            <glyph unicode="!" horiz-adv-x="555"
                   d="M218 352L198 1252H364L344 352H218ZM281 -18Q230 -18 197 14T164 94Q164 141 197 174T281 208Q331 208 365 175T400 94Q400 46 366 14T281 -18Z"/>
            <glyph unicode="&quot;" horiz-adv-x="609"
                   d="M412 924L392 1364H552L530 924H412ZM78 924L58 1364H218L196 924H78Z"/>
            <glyph unicode="#" horiz-adv-x="1251" d="M276 62L306 340H106L116 446H316L354 804H154L164 910H366L394 1184H540L512 910H820L850 1184H994L966 910H1170L1158 804H954L918 446H1122L1110 340H906L876 62H730L760 340H452L422 62H276ZM462 446H770L808 804H500L462
446Z"/>
            <glyph unicode="$" horiz-adv-x="1261" d="M638 -24Q537 -24 447 1T287 77T178 202T138 376H290Q290 287 335 231T460 147T644 120Q745 120 812 150T914 229T948 334Q948 409 901 460T764 540L636 584V724L832 660Q969 615 1046 537T1124 330Q1124 242 1071 161T910
28T638 -24ZM570 -182V1424H692V-182H570ZM608 584L506 618Q341 672 256 745T170 948Q170 1094 287 1186T628 1278Q831 1278 941 1189T1076 952H920Q905 1039 830 1090T626 1142Q485 1142 412 1086T338 942Q338 873 379 832T510 762L608 726V584Z"/>
            <glyph unicode="%" horiz-adv-x="1451" d="M222 0L1068 1256H1230L384 0H222ZM1076 -20Q1010 -20 952 12T858 109T822 268Q822 362 858 425T952 521T1076 554Q1145 554 1204 522T1298 426T1334 268Q1334 173 1299 109T1204 13T1076 -20ZM1076 88Q1135 88 1171
131T1208 268Q1208 360 1172 404T1076 448Q1018 448 982 404T946 268Q946 174 982 131T1076 88ZM376 706Q310 706 252 738T158 834T122 992Q122 1086 158 1149T252 1245T376 1278Q444 1278 503 1246T598 1150T634 992Q634 898 598 835T503 739T376 706ZM376 812Q433
812 469 855T506 992Q506 1085 470 1129T376 1174Q318 1174 282 1130T246 992Q246 899 282 856T376 812Z"/>
            <glyph unicode="&amp;" horiz-adv-x="1829" d="M1466 -24Q1390 -24 1324 8T1180 110L524 688Q452 751 411 826T370 982Q370 1067 417 1133T551 1238T758 1276Q870 1276 953 1238T1083 1134T1130 986Q1130 908 1093 842T976 719T766 610L680 692Q792 741 852 786T935
878T958 976Q958 1048 903 1096T758 1144Q650 1144 595 1089T540 960Q540 906 566 857T652 754L1304 180Q1345 146 1376 130T1454 114Q1505 114 1543 152T1588 278H1736Q1729 136 1662 56T1466 -24ZM670 -24Q564 -24 475 4T319 84T215 202T178 348Q178 501 299
578T652 674L690 582Q515 564 432 509T348 354Q348 289 385 235T495 149T672 116Q794 116 895 166T1080 305T1227 510T1338 760L1448 700Q1399 548 1327 417T1158 186T940 32T670 -24Z"/>
            <glyph unicode="&apos;" horiz-adv-x="271" d="M56 1354H216L194 914H76L56 1354Z"/>
            <glyph unicode="(" horiz-adv-x="711"
                   d="M542 1454L654 1376Q540 1260 464 1136T349 880T310 614Q310 412 396 220T654 -146L542 -228Q347 -49 247 168T146 614Q146 845 246 1061T542 1454Z"/>
            <glyph unicode=")" horiz-adv-x="711"
                   d="M170 -228L56 -146Q227 27 314 219T402 614Q402 749 363 880T247 1135T56 1376L170 1454Q364 1277 465 1061T566 614Q566 461 521 313T388 28T170 -228Z"/>
            <glyph unicode="*" horiz-adv-x="825"
                   d="M166 854L346 1030L112 1112L160 1218L372 1112L354 1368H474L456 1112L668 1220L716 1112L484 1032L664 854L574 776L416 984L256 776L166 854Z"/>
            <glyph unicode="+" horiz-adv-x="1054" d="M450 982H604V558H1018V424H604V0H450V424H36V558H450V982Z"/>
            <glyph unicode="," horiz-adv-x="418"
                   d="M178 -218L60 -160Q117 -131 156 -96T208 -10Q165 -5 135 21T104 90Q104 132 135 162T216 192Q278 192 316 147T354 40Q354 -33 310 -103T178 -218Z"/>
            <glyph unicode="-" horiz-adv-x="696" d="M76 514V650H620V514H76Z"/>
            <glyph unicode="." horiz-adv-x="357"
                   d="M60 93Q60 140 93 174T176 208Q226 208 261 174T296 93Q296 46 261 14T176 -18Q126 -18 93 14T60 93Z"/>
            <glyph unicode="/" horiz-adv-x="863" d="M114 -144L616 1462H776L270 -144H114Z"/>
            <glyph unicode="0" horiz-adv-x="1187" d="M594 -24Q446 -24 336 48T164 265T102 628Q102 846 163 990T335 1206T594 1278Q741 1278 852 1207T1024 991T1086 628Q1086 410 1025 265T852 48T594 -24ZM594 120Q756 120 840 252T924 628Q924 871 840 1003T594 1136Q434
1136 349 1004T264 628Q264 385 349 253T594 120Z"/>
            <glyph unicode="1" horiz-adv-x="661"
                   d="M332 1260H458V0H302V1076Q254 1043 202 1026T96 1006V1158Q159 1167 218 1191T332 1260Z"/>
            <glyph unicode="2" horiz-adv-x="1159" d="M128 0V186Q128 295 163 368T263 489T416 572L664 670Q760 709 808 770T856 922Q856 1018 790 1079T604 1140Q486 1140 411 1090T324 938H150Q157 1047 214 1123T371 1238T602 1278Q723 1278 819 1231T970 1102T1026
912Q1026 815 990 743T888 619T730 530L476 428Q380 391 332 339T284 204V144H1014V0H128Z"/>
            <glyph unicode="3" horiz-adv-x="1181" d="M594 -24Q500 -24 413 2T256 80T146 208T106 384H266Q268 298 312 239T429 150T594 120Q734 120 811 188T888 358Q888 423 856 473T755 551T572 580H430V704H526Q672 704 756 762T840 922Q840 1012 772 1074T578 1136Q481
1136 405 1097T302 952H142Q158 1069 218 1141T370 1245T574 1278Q699 1278 797 1234T951 1113T1008 936Q1008 837 952 767T788 658Q907 624 982 546T1058 346Q1058 238 1002 155T841 24T594 -24Z"/>
            <glyph unicode="4" horiz-adv-x="1117"
                   d="M710 1274H856V438H1074V306H856V0H702V306H52V426L710 1274ZM708 1028L238 426H708V1028Z"/>
            <glyph unicode="5" horiz-adv-x="1129" d="M564 -24Q445 -24 347 19T190 145T130 350H286Q286 236 366 178T564 120Q699 120 776 202T854 406Q854 648 542 648H206L260 1256H956V1114H386L418 1168L376 730L356 748Q404 759 465 763T574 768Q778 768 897 677T1016
406Q1016 284 961 187T805 33T564 -24Z"/>
            <glyph unicode="6" horiz-adv-x="1145" d="M602 -24Q451 -24 339 59T164 284T102 606Q102 817 165 967T345 1198T624 1278Q736 1278 821 1236T958 1117T1020 940H850Q835 1030 782 1083T628 1136Q456 1136 358 988T260 582Q260 545 262 497T270 406Q279 539 331
615T463 724T630 756Q744 756 834 706T977 568T1030 364Q1030 248 976 161T826 25T602 -24ZM602 120Q716 120 791 187T866 368Q866 485 791 551T602 618Q527 618 468 586T375 497T340 368Q340 254 415 187T602 120Z"/>
            <glyph unicode="7" horiz-adv-x="939" d="M118 0L720 1108H48V1256H904V1112L326 0H118Z"/>
            <glyph unicode="8" horiz-adv-x="1229" d="M614 -24Q466 -24 353 23T175 152T110 338Q110 433 159 501T295 605T492 642Q521 642 548 639T606 628V582Q506 582 431 550T314 464T272 350Q272 276 317 225T439 147T614 120Q776 120 866 172T956 308Q956 376 909
420T778 494L432 626Q369 650 305 692T196 797T152 946Q152 1043 207 1118T365 1235T614 1278Q747 1278 850 1233T1013 1109T1072 930Q1072 852 1033 786T917 679T728 638Q701 638 677 641T622 654V704Q703 704 768 731T871 808T910 922Q910 984 873 1032T769 1108T614
1136Q529 1136 462 1110T355 1039T316 940Q316 873 361 833T488 762L834 630Q972 578 1046 507T1120 314Q1120 215 1060 139T887 19T614 -24Z"/>
            <glyph unicode="9" horiz-adv-x="1160" d="M568 -24Q444 -24 348 27T196 167T140 372H302Q305 257 374 189T564 120Q682 120 755 188T863 380T898 674Q898 713 896 746T888 822Q875 714 826 643T701 536T528 500Q416 500 327 550T185 689T132 892Q132 1009 185
1096T335 1230T558 1278Q666 1278 757 1234T916 1108T1020 910T1058 652Q1058 445 1006 293T845 59T568 -24ZM558 638Q632 638 692 671T787 760T822 886Q822 1002 746 1069T558 1136Q444 1136 369 1069T294 886Q294 771 369 705T558 638Z"/>
            <glyph unicode=":" horiz-adv-x="461"
                   d="M112 159Q112 206 145 240T228 274Q278 274 313 240T348 159Q348 112 313 80T228 48Q178 48 145 80T112 159ZM112 771Q112 818 145 852T228 886Q278 886 313 852T348 771Q348 724 313 692T228 660Q178 660 145 692T112 771Z"/>
            <glyph unicode=";" horiz-adv-x="522" d="M232 -218L114 -160Q171 -131 210 -96T262 -10Q219 -5 189 21T158 90Q158 132 189 162T270 192Q332 192 370 147T408 40Q408 -33 364 -103T232 -218ZM164 771Q164 818 197 852T280 886Q330 886 365 852T400 771Q400 724
365 692T280 660Q230 660 197 692T164 771Z"/>
            <glyph unicode="&lt;" horiz-adv-x="906"
                   d="M712 1142L814 1022L192 578V642L814 202L712 80L82 542V678L712 1142Z"/>
            <glyph unicode="=" horiz-adv-x="975" d="M158 368H816V234H158V368ZM158 752H816V616H158V752Z"/>
            <glyph unicode="&gt;" horiz-adv-x="906"
                   d="M196 80L94 202L712 642V578L94 1022L196 1142L826 678V542L196 80Z"/>
            <glyph unicode="?" horiz-adv-x="997" d="M354 320V410Q354 497 372 553T434 650T552 732Q619 768 659 799T716 866T734 954Q734 1032 671 1084T496 1136Q373 1136 308 1088T226 952H60Q74 1098 182 1188T492 1278Q620 1278 712 1234T854 1115T904 950Q904 847
852 778T684 646Q617 609 579 578T524 506T508 400V320H354ZM434 -24Q384 -24 351 8T318 87Q318 134 350 168T433 202Q483 202 518 169T554 88Q554 42 519 9T434 -24Z"/>
            <glyph unicode="@" horiz-adv-x="1877" d="M1088 -360Q872 -360 697 -300T395 -131T202 128T134 455Q134 631 199 781T383 1042T661 1216T1012 1278Q1189 1278 1331 1225T1574 1077T1730 857T1784 587Q1784 466 1748 369T1651 201T1512 94T1353 56Q1271 56 1218
93T1156 198L1150 228Q1116 158 1056 107T898 56Q813 56 740 99T621 221T576 409Q576 505 612 588T710 735T852 834T1020 870Q1140 870 1210 798T1280 580V276Q1280 222 1298 197T1357 172Q1414 172 1476 221T1581 363T1624 587Q1624 748 1551 872T1343 1068T1019
1140Q855 1140 722 1085T493 933T346 709T294 435Q294 237 389 87T663 -149T1088 -234V-360ZM920 182Q999 182 1051 230T1148 366V580Q1148 662 1119 705T1022 748Q955 748 886 707T771 589T724 408Q724 298 779 240T920 182Z"/>
            <glyph unicode="A" horiz-adv-x="1149"
                   d="M52 0L484 1256H674L1096 0H932L826 322H326L216 0H52ZM366 444H786L576 1066L366 444Z"/>
            <glyph unicode="B" horiz-adv-x="1243" d="M202 0V1256H672Q810 1256 901 1211T1037 1091T1082 928Q1082 820 1023 741T844 632Q921 620 979 578T1071 474T1104 342Q1104 278 1083 217T1011 107T878 29T672 0H202ZM358 136H670Q813 136 875 196T938 350Q938 445
870 502T670 560H358V136ZM358 1122V694H666Q783 694 852 751T922 914Q922 1012 855 1067T668 1122H358Z"/>
            <glyph unicode="C" horiz-adv-x="1226" d="M638 -24Q472 -24 352 59T167 291T102 636Q102 845 172 988T364 1204T638 1278Q839 1278 961 1178T1130 916L962 882Q923 999 838 1068T638 1138Q539 1138 456 1082T321 913T270 636Q270 486 310 369T432 185T638 118Q787
118 874 198T962 408H1132Q1132 273 1070 177T897 28T638 -24Z"/>
            <glyph unicode="D" horiz-adv-x="1320"
                   d="M202 1256H570Q760 1256 900 1179T1117 960T1194 628Q1194 439 1117 298T900 79T570 0H202V1256ZM358 1118V136H570Q712 136 814 200T972 375T1028 628Q1028 770 973 880T815 1054T570 1118H358Z"/>
            <glyph unicode="E" horiz-adv-x="1124" d="M200 0V1256H974V1122H356V700H938V566H356V136H974V0H200Z"/>
            <glyph unicode="F" horiz-adv-x="1048" d="M202 0V1256H966V1122H358V704H924V570H358V0H202Z"/>
            <glyph unicode="G" horiz-adv-x="1288" d="M644 -24Q494 -24 371 54T175 275T102 614Q102 777 149 901T278 1109T466 1235T692 1278Q839 1278 950 1218T1140 1026L992 974Q925 1057 849 1096T686 1136Q573 1136 478 1073T326 893T268 614Q268 470 315 359T448
184T654 120Q745 120 817 162T932 288T974 502H1022Q1022 342 984 224T863 41T644 -24ZM1002 0L974 296V506L658 516V622H1126V0H1002Z"/>
            <glyph unicode="H" horiz-adv-x="1337" d="M202 1256H358V702H980V1256H1134V0H980V568H358V0H202V1256Z"/>
            <glyph unicode="I" horiz-adv-x="560" d="M202 0V1256H358V0H202Z"/>
            <glyph unicode="J" horiz-adv-x="807"
                   d="M16 62V224Q87 178 158 153T296 128Q401 128 445 190T490 364V1256H646V364Q646 227 605 142T487 16T306 -24Q225 -24 154 0T16 62Z"/>
            <glyph unicode="K" horiz-adv-x="1215"
                   d="M924 1256H1140L338 430V650L924 1256ZM564 726L1174 0H970L452 624L564 726ZM202 1256H360V0H202V1256Z"/>
            <glyph unicode="L" horiz-adv-x="935" d="M358 1256V136H918V0H202V1256H358Z"/>
            <glyph unicode="M" horiz-adv-x="1694"
                   d="M202 1256H426L858 388H842L1274 1256H1492V0H1334V1094H1362L902 158H798L340 1088H358V0H202V1256Z"/>
            <glyph unicode="N" horiz-adv-x="1368"
                   d="M200 1256H386L1024 222H1010V1256H1166V0H992L332 1068H356V0H200V1256Z"/>
            <glyph unicode="O" horiz-adv-x="1291" d="M646 -24Q490 -24 367 48T173 264T102 626Q102 846 173 990T367 1206T646 1278Q802 1278 925 1206T1119 989T1190 626Q1190 407 1119 263T925 47T646 -24ZM646 120Q823 120 925 249T1028 628Q1028 873 926 1005T646 1138Q471
1138 368 1005T264 626Q264 377 367 249T646 120Z"/>
            <glyph unicode="P" horiz-adv-x="1107"
                   d="M198 0V1256H602Q809 1256 918 1152T1028 868Q1028 691 919 588T602 484H356V0H198ZM356 620H602Q733 620 800 687T868 868Q868 984 801 1053T602 1122H356V620Z"/>
            <glyph unicode="Q" horiz-adv-x="1303" d="M646 -24Q490 -24 367 48T173 264T102 626Q102 846 173 990T367 1206T646 1278Q802 1278 925 1206T1119 989T1190 626Q1190 407 1119 263T925 47T646 -24ZM1022 -334Q934 -334 863 -289T732 -156L602 30L742 74L858 -92Q891
-137 926 -155T996 -176Q1049 -176 1094 -162T1190 -124V-296Q1145 -315 1104 -324T1022 -334ZM646 120Q823 120 925 249T1028 628Q1028 873 926 1005T646 1138Q471 1138 368 1005T264 626Q264 377 367 249T646 120Z"/>
            <glyph unicode="R" horiz-adv-x="1225"
                   d="M202 0V1256H640Q855 1256 965 1154T1076 884Q1076 719 966 617T640 514H358V0H202ZM906 0L546 570H716L1108 0H906ZM358 624H628Q769 624 842 693T916 874Q916 988 846 1055T640 1122H358V624Z"/>
            <glyph unicode="S" horiz-adv-x="1209" d="M604 -24Q478 -24 373 21T204 156T138 376H290Q290 288 333 232T447 148T602 120Q693 120 760 149T863 225T900 330Q900 410 851 459T706 540L484 618Q328 674 248 746T168 948Q168 1094 280 1186T600 1278Q792 1278
900 1190T1024 952H870Q855 1039 789 1087T600 1136Q476 1136 407 1081T338 942Q338 873 381 833T518 760L778 670Q913 625 991 544T1070 334Q1070 234 1017 153T859 24T604 -24Z"/>
            <glyph unicode="T" horiz-adv-x="1001" d="M12 1122V1256H990V1122H543L578 1158V0H422V1158L457 1122H12Z"/>
            <glyph unicode="U" horiz-adv-x="1306"
                   d="M174 1256H330V454Q330 277 419 199T652 120Q795 120 883 198T972 454V1256H1128V454Q1128 296 1070 190T904 30T652 -24Q507 -24 400 29T233 189T174 454V1256Z"/>
            <glyph unicode="V" horiz-adv-x="1125" d="M552 166L924 1256H1090L642 0H480L36 1256H202L572 166H552Z"/>
            <glyph unicode="W" horiz-adv-x="1788"
                   d="M28 1256H204L530 138H484L818 1126H924L1254 146H1210L1584 1256H1758L1314 0H1150L860 852H890L590 0H426L28 1256Z"/>
            <glyph unicode="X" horiz-adv-x="1283"
                   d="M98 0L540 624L94 1256H282L644 744L976 1256H1166L730 626L1182 0H990L626 502L286 0H98Z"/>
            <glyph unicode="Y" horiz-adv-x="1097"
                   d="M18 1256H206L566 646H526L892 1256H1078L624 516V0H466V516L18 1256Z"/>
            <glyph unicode="Z" horiz-adv-x="1183"
                   d="M146 0V140L916 1166V1108L146 1114V1256H1068V1116L322 122L310 148L1068 142V0H146Z"/>
            <glyph unicode="[" horiz-adv-x="632" d="M202 -202V1460H596V1322H358V-64H596V-202H202Z"/>
            <glyph unicode="\" horiz-adv-x="863" d="M90 1462L592 -144H752L246 1462H90Z"/>
            <glyph unicode="]" horiz-adv-x="568" d="M366 -202V1460H-28V1322H210V-64H-28V-202H366Z"/>
            <glyph unicode="^" horiz-adv-x="892" d="M42 490L392 1172H514L864 490H690L424 1046H482L218 490H42Z"/>
            <glyph unicode="_" horiz-adv-x="1449" d="M110 0V136H1342V0H110Z"/>
            <glyph unicode="`" horiz-adv-x="648" d="M469 1125L102 1450L211 1539L547 1188L469 1125Z"/>
            <glyph unicode="a" horiz-adv-x="1101" d="M794 0L774 210V620Q774 749 719 805T554 862Q492 862 442 844T362 789T332 692H158Q158 796 209 859T349 951T554 980Q664 980 749 943T882 826T930 616V0H794ZM468 -24Q350 -24 273 18T158 127T120 268Q120 365 168
426T301 515T490 544Q565 544 640 529T788 488V390Q728 414 653 428T514 442Q418 442 352 403T286 268Q286 198 336 148T498 98Q576 98 638 134T737 226T774 336H812Q812 240 771 158T652 26T468 -24Z"/>
            <glyph unicode="b" horiz-adv-x="1185" d="M640 -24Q544 -24 467 26T344 172T298 408H358Q358 315 396 250T496 150T624 116Q701 116 765 160T867 286T906 482Q906 594 868 674T766 798T622 842Q554 842 494 809T396 710T358 550H298Q298 686 342 782T466 929T650
980Q763 980 857 920T1009 747T1066 482Q1066 328 1008 215T853 39T640 -24ZM202 0V1364H358V224L312 0H202Z"/>
            <glyph unicode="c" horiz-adv-x="1032" d="M538 -24Q423 -24 324 38T163 213T102 480Q102 638 163 750T323 921T538 980Q619 980 683 956T796 888T875 791T922 676L762 662Q737 745 679 793T536 842Q465 842 403 802T301 681T262 480Q262 369 297 288T395 161T536
116Q647 116 704 170T762 322H922Q922 222 875 144T742 21T538 -24Z"/>
            <glyph unicode="d" horiz-adv-x="1185" d="M544 -24Q428 -24 331 38T176 214T118 482Q118 635 175 747T326 919T534 980Q639 980 718 929T842 782T886 550H826Q826 645 789 710T691 808T562 842Q484 842 420 799T317 675T278 482Q278 368 316 286T419 160T562
116Q627 116 687 150T787 249T826 408H886Q886 269 841 173T718 26T544 -24ZM852 0L826 224V1364H982V0H852Z"/>
            <glyph unicode="e" horiz-adv-x="1027" d="M534 -24Q410 -24 313 39T159 216T102 476Q102 633 158 746T311 919T534 980Q643 980 720 936T844 817T909 648T920 452H228V548H817L771 518Q774 577 765 636T729 744T656 824T536 854Q444 854 382 807T289 684T258
518V454Q258 354 288 275T380 150T534 104Q627 104 687 149T760 282H922Q907 187 854 119T719 13T534 -24Z"/>
            <glyph unicode="f" horiz-adv-x="685"
                   d="M254 0V1104Q254 1199 290 1259T388 1349T526 1378Q567 1378 609 1372T694 1354L664 1230Q634 1242 605 1248T548 1254Q516 1254 484 1242T431 1197T410 1102V0H254ZM98 848V956H608V848H98Z"/>
            <glyph unicode="g" horiz-adv-x="1129" d="M540 -492Q393 -492 285 -451T118 -340T58 -186Q58 -75 139 -17T350 42L436 -12Q328 -12 269 -57T210 -180Q210 -258 294 -312T540 -366Q660 -366 750 -332T891 -242T942 -122Q942 -77 909 -45T808 -12H436Q339 -12 269
17T160 95T122 200Q122 260 156 302T244 366T362 388L392 330Q362 330 332 317T281 277T260 210Q260 164 298 133T436 102H808Q943 102 1020 45T1098 -114Q1098 -208 1031 -294T839 -436T540 -492ZM568 280Q458 280 370 324T230 447T178 630Q178 735 229 814T369
936T568 980Q675 980 762 937T902 814T954 630Q954 526 902 447T763 324T568 280ZM568 392Q678 392 739 460T800 630Q800 735 739 800T568 866Q459 866 397 801T334 630Q334 528 396 460T568 392ZM882 828L808 858Q808 942 841 1005T935 1104T1080 1140L1068 986Q978
986 930 948T882 828Z"/>
            <glyph unicode="h" horiz-adv-x="1207"
                   d="M882 0V562Q882 699 817 770T638 842Q552 842 489 795T392 661T358 452H298Q298 619 342 737T470 917T676 980Q789 980 869 930T993 785T1036 562V0H882ZM202 0V1364H358V0H202Z"/>
            <glyph unicode="i" horiz-adv-x="596"
                   d="M290 1182Q242 1182 214 1209T186 1282Q186 1326 214 1352T290 1378Q338 1378 366 1352T394 1282Q394 1237 366 1210T290 1182ZM212 0V958H368V0H212Z"/>
            <glyph unicode="j" horiz-adv-x="627" d="M320 1182Q272 1182 245 1209T218 1282Q218 1326 245 1352T320 1378Q368 1378 396 1352T424 1282Q424 1237 396 1210T320 1182ZM96 -492Q27 -492 -38 -474T-172 -418L-164 -282Q-105 -315 -49 -335T68 -356Q152 -356 198
-302T244 -134V960H398V-136Q398 -326 315 -409T96 -492Z"/>
            <glyph unicode="k" horiz-adv-x="1127"
                   d="M202 0V1364H358V0H202ZM334 548L822 956H1040L334 382V548ZM870 0L416 604L574 632L1062 0H870Z"/>
            <glyph unicode="l" horiz-adv-x="560" d="M202 0V1364H358V0H202Z"/>
            <glyph unicode="m" horiz-adv-x="1871" d="M1546 0V562Q1546 699 1481 770T1304 842Q1174 842 1105 742T1036 464H964Q964 593 989 690T1064 851T1183 948T1342 980Q1455 980 1535 930T1659 785T1702 562V0H1546ZM202 0V956H336L354 764Q399 868 480 924T676 980Q789
980 869 930T993 785T1036 562V0H882V562Q882 699 817 770T638 842Q552 842 489 795T392 661T358 452V0H202Z"/>
            <glyph unicode="n" horiz-adv-x="1207"
                   d="M882 0V562Q882 699 817 770T638 842Q552 842 489 795T392 661T358 452H298Q298 619 342 737T470 917T676 980Q789 980 869 930T993 785T1036 562V0H882ZM202 0V956H336L358 736V0H202Z"/>
            <glyph unicode="o" horiz-adv-x="1093" d="M548 -24Q419 -24 319 33T160 202T102 478Q102 643 160 754T318 923T548 980Q676 980 776 923T934 755T992 478Q992 314 935 202T777 33T548 -24ZM544 112Q637 112 702 156T800 283T834 478Q834 649 763 747T552 846Q458
846 394 802T296 675T262 478Q262 309 333 211T544 112Z"/>
            <glyph unicode="p" horiz-adv-x="1169" d="M636 -24Q531 -24 454 24T334 164T292 390H358Q358 301 395 240T491 148T618 116Q690 116 756 157T864 280T906 480Q906 594 868 675T764 799T620 842Q552 842 492 809T395 713T358 556H292Q292 695 338 789T463 932T640
980Q752 980 849 920T1006 748T1066 480Q1066 322 1006 209T847 36T636 -24ZM202 -470V956H332L358 732V-470H202Z"/>
            <glyph unicode="q" horiz-adv-x="1169" d="M534 -24Q420 -24 322 36T163 209T102 480Q102 636 162 748T319 920T528 980Q626 980 705 932T831 790T878 556H810Q810 649 773 712T676 809T548 842Q470 842 405 799T301 675T262 480Q262 361 303 280T411 158T550
116Q616 116 675 147T772 239T810 390H856Q856 266 819 173T710 28T534 -24ZM1058 -492Q922 -454 866 -375T810 -152V732L858 956H964V-162Q964 -230 977 -269T1022 -330T1110 -372L1058 -492Z"/>
            <glyph unicode="r" horiz-adv-x="723"
                   d="M202 0V958H358V0H202ZM310 432Q310 614 345 734T447 914T612 974Q644 974 670 970T724 956L714 802Q686 811 653 817T594 824Q509 824 457 776T382 639T358 432H310Z"/>
            <glyph unicode="s" horiz-adv-x="1051" d="M546 -24Q407 -24 314 15T173 124T122 284H272Q277 193 345 148T532 102Q594 102 646 122T729 177T760 256Q760 312 719 344T588 400L402 460Q281 498 217 564T152 724Q152 840 254 910T522 980Q698 980 795 908T896
728H742Q733 791 678 823T522 856Q425 856 371 813T316 716Q316 617 486 570L676 506Q799 469 864 409T930 256Q930 184 883 120T750 16T546 -24Z"/>
            <glyph unicode="t" horiz-adv-x="752"
                   d="M496 -24Q418 -24 356 6T258 96T222 246V1222H376V250Q376 102 514 102Q555 102 593 111T680 138L702 26Q651 4 601 -10T496 -24ZM68 848V956H678V848H68Z"/>
            <glyph unicode="u" horiz-adv-x="1211"
                   d="M852 958H1008V0H852V958ZM174 958H330V362Q330 242 388 180T556 118Q646 118 712 166T815 298T852 492H910Q910 331 864 217T733 43T534 -18Q426 -18 345 22T219 143T174 350V958Z"/>
            <glyph unicode="v" horiz-adv-x="1005" d="M36 956H214L514 134H492L792 956H970L588 0H418L36 956Z"/>
            <glyph unicode="w" horiz-adv-x="1449"
                   d="M36 956H198L442 158H422L660 910H790L1026 156H1008L1252 956H1408L1094 0H942L710 706H734L504 0H352L36 956Z"/>
            <glyph unicode="x" horiz-adv-x="1023"
                   d="M52 0L414 478L52 958H242L516 596L780 958H970L606 478L968 0H778L504 364L242 0H52Z"/>
            <glyph unicode="y" horiz-adv-x="931"
                   d="M44 956H218L530 136H494L736 956H896L536 -192Q491 -336 416 -414T224 -492Q161 -492 105 -474T-12 -422V-278Q41 -320 90 -338T194 -356Q254 -356 294 -318T362 -221T408 -96L436 0L44 956Z"/>
            <glyph unicode="z" horiz-adv-x="949" d="M106 0V126L670 830H106V956H846V830L290 126H846V0H106Z"/>
            <glyph unicode="{" horiz-adv-x="696" d="M680 -276Q525 -276 432 -215T298 -49T256 192V374Q256 461 240 496T184 532H150V684H184Q223 684 239 719T256 842V1026Q256 1162 297 1267T432 1433T680 1494V1356Q533 1356 472 1271T410 1024V838Q410 745 382 691T306
612V606Q353 582 381 528T410 380V194Q410 32 471 -53T680 -138V-276Z"/>
            <glyph unicode="|" horiz-adv-x="560" d="M202 -244V1500H358V-244H202Z"/>
            <glyph unicode="}" horiz-adv-x="696" d="M16 -276Q171 -276 264 -215T398 -49T440 192V374Q440 461 456 496T512 532H546V684H512Q473 684 457 719T440 842V1026Q440 1162 399 1267T264 1433T16 1494V1356Q163 1356 224 1271T286 1024V838Q286 745 314 691T390
612V606Q343 582 315 528T286 380V194Q286 32 225 -53T16 -138V-276Z"/>
            <glyph unicode="~" horiz-adv-x="1029" d="M192 446L106 492Q139 600 193 657T320 714Q356 714 400 701T520 658Q603 625 640 615T706 604Q744 604 778 632T838 718L922 664Q886 555 828 505T696 454Q666 454 620 467T498 510Q417 540 381 552T316 564Q282 564
251 538T192 446Z"/>
            <glyph unicode="&#xa0;" horiz-adv-x="475"/>
            <glyph unicode="&#xa1;" horiz-adv-x="555"
                   d="M218 880L198 -20H364L344 880H218ZM281 1250Q230 1250 197 1218T164 1138Q164 1091 197 1058T281 1024Q331 1024 365 1057T400 1138Q400 1186 366 1218T281 1250Z"/>
            <glyph unicode="&#xa2;" horiz-adv-x="1025" d="M470 -210V18H604V-210H470ZM470 942V1142H604V942H470ZM538 -24Q423 -24 324 38T163 213T102 480Q102 638 163 750T323 921T538 980Q619 980 683 956T796 888T875 791T922 676L762 662Q737 745 679 793T536 842Q465
842 403 802T301 681T262 480Q262 369 297 288T395 161T536 116Q647 116 704 170T762 322H922Q922 222 875 144T742 21T538 -24Z"/>
            <glyph unicode="&#xa3;" horiz-adv-x="1129" d="M96 90V136Q173 136 207 180T242 316V864Q242 994 283 1086T406 1228T610 1278Q750 1278 840 1203T954 978H800Q787 1059 734 1097T610 1136Q511 1136 455 1071T398 864V324Q398 201 335 146T96 90ZM40 0V136H690Q786
136 831 177T890 306H1056Q1047 165 966 83T690 0H40ZM60 534V644H760V534H60Z"/>
            <glyph unicode="&#xa4;" horiz-adv-x="1200" d="M600 226Q488 226 396 281T249 428T194 634Q194 745 249 837T396 983T600 1038Q712 1038 803 984T949 837T1004 634Q1004 521 950 429T804 281T600 226ZM600 372Q671 372 730 407T824 501T860 634Q860 706 825 764T730
857T600 892Q528 892 469 858T375 765T340 634Q340 561 375 502T469 407T600 372ZM860 814L780 894L976 1088L1056 1010L860 814ZM334 820L144 1008L222 1088L412 900L334 820ZM866 446L1056 258L978 176L788 366L866 446ZM334 446L412 366L222 176L144 258L334
446Z"/>
            <glyph unicode="&#xa5;" horiz-adv-x="1097"
                   d="M466 0V516L18 1256H206L566 646H526L892 1256H1078L624 516V0H466ZM208 202V300H884V202H208ZM208 400V498H884V400H208Z"/>
            <glyph unicode="&#xa6;" horiz-adv-x="560" d="M202 710V1500H358V710H202ZM202 -244V546H358V-244H202Z"/>
            <glyph unicode="&#xa7;" horiz-adv-x="1200" d="M639 429Q702 429 754 449T837 504T868 587Q868 640 825 671T695 727L509 787Q388 823 324 890T260 1049Q260 1166 360 1236T630 1307Q805 1307 902 1235T1003 1054H849Q842 1119 784 1151T639 1183Q530 1183 477
1139T424 1040Q424 946 593 897L783 833Q906 795 971 736T1037 587Q1037 512 990 448T857 343T653 303L639 429ZM563 771Q466 771 412 726T357 623Q357 529 527 479L717 416Q839 378 904 318T970 169Q970 95 925 30T792 -75T572 -115Q446 -115 355 -76T214 34T163
194H313Q315 104 385 58T561 12Q669 12 735 56T801 168Q801 222 758 253T628 310L443 369Q320 407 257 474T193 634Q193 755 294 825T563 895V771Z"/>
            <glyph unicode="&#xa8;" horiz-adv-x="747" d="M540 1139Q497 1139 467 1167T436 1238Q436 1280 466 1310T540 1340Q585 1340 615 1310T646 1238Q646 1196 616 1168T540 1139ZM206 1139Q161 1139 132 1167T102 1236Q102 1280 131 1309T206 1338Q251 1338 281 1309T312
1236Q312 1196 282 1168T206 1139Z"/>
            <glyph unicode="&#xa9;" horiz-adv-x="1379" d="M690 -12Q557 -12 441 38T237 176T98 380T48 629Q48 762 98 878T236 1082T441 1221T690 1271Q822 1271 938 1221T1143 1083T1281 878T1331 629Q1331 496 1281 380T1143 176T939 38T690 -12ZM690 71Q806 71 907 114T1084
234T1204 412T1248 629Q1248 745 1205 846T1085 1024T907 1144T690 1188Q575 1188 474 1145T295 1024T175 846T131 629Q131 514 174 413T295 235T473 115T690 71ZM687 227Q584 227 510 278T395 422T355 635Q355 765 399 853T518 986T687 1032Q811 1032 886 970T991
808L887 787Q863 860 811 903T687 946Q626 946 574 911T491 807T459 635Q459 543 484 471T559 357T687 315Q779 315 833 364T887 494H992Q992 369 908 298T687 227Z"/>
            <glyph unicode="&#xaa;" horiz-adv-x="1101" d="M794 0L774 210V620Q774 749 719 805T554 862Q492 862 442 844T362 789T332 692H158Q158 796 209 859T349 951T554 980Q664 980 749 943T882 826T930 616V0H794ZM468 -24Q350 -24 273 18T158 127T120 268Q120 365
168 426T301 515T490 544Q565 544 640 529T788 488V390Q728 414 653 428T514 442Q418 442 352 403T286 268Q286 198 336 148T498 98Q576 98 638 134T737 226T774 336H812Q812 240 771 158T652 26T468 -24Z"/>
            <glyph unicode="&#xab;" horiz-adv-x="1143"
                   d="M249 502L629 884L511 959L102 530L511 101L629 176L249 558V502ZM662 502L1042 884L924 959L515 530L924 101L1042 176L662 558V502Z"/>
            <glyph unicode="&#xac;" horiz-adv-x="1200" d="M229 634H913V293H799V558L837 513H229V634Z"/>
            <glyph unicode="&#xad;" horiz-adv-x="1200" d="M76 514V650H620V514H76Z"/>
            <glyph unicode="&#xae;" horiz-adv-x="1379" d="M690 -12Q557 -12 441 38T237 176T98 380T48 629Q48 762 98 878T236 1082T441 1221T690 1271Q822 1271 938 1221T1143 1083T1281 878T1331 629Q1331 496 1281 380T1143 176T939 38T690 -12ZM690 71Q806 71 907 114T1084
234T1204 412T1248 629Q1248 745 1205 846T1085 1024T907 1144T690 1188Q575 1188 474 1145T295 1024T175 846T131 629Q131 514 174 413T295 235T473 115T690 71ZM867 276L658 606H757L984 276H867ZM459 276V1003H713Q837 1003 901 944T965 788Q965 693 901 634T713
574H549V276H459ZM549 637H706Q788 637 830 677T872 782Q872 848 832 887T713 926H549V637Z"/>
            <glyph unicode="&#xaf;" horiz-adv-x="828" d="M102 1298H727V1168H102V1298Z"/>
            <glyph unicode="&#xb0;" horiz-adv-x="681" d="M341 955Q268 955 207 991T110 1088T74 1222Q74 1296 110 1356T207 1452T341 1488Q414 1488 474 1452T571 1356T607 1222Q607 1149 571 1088T475 991T341 955ZM341 1064Q406 1064 451 1110T497 1222Q497 1287 452
1333T341 1379Q276 1379 230 1333T183 1222Q183 1157 229 1111T341 1064Z"/>
            <glyph unicode="&#xb1;" horiz-adv-x="975"
                   d="M422 1050H552V718H860V612H552V280H422V612H114V718H422V1050ZM146 120H830V0H146V120Z"/>
            <glyph unicode="&#xb2;" horiz-adv-x="802" d="M128 508V620Q128 686 149 730T210 802T302 853L451 912Q509 935 538 972T567 1063Q567 1121 527 1158T415 1195Q344 1195 299 1165T246 1073H141Q146 1139 180 1184T274 1254T414 1278Q487 1278 544 1250T635 1172T669
1057Q669 999 648 956T586 881T491 827L338 766Q280 744 251 713T222 631V595H662V508H128Z"/>
            <glyph unicode="&#xb3;" horiz-adv-x="803" d="M400 494Q343 494 291 509T196 556T130 633T106 739H202Q203 688 229 652T300 598T400 580Q484 580 530 621T577 724Q577 763 558 793T497 840T387 857H301V932H359Q447 932 497 967T548 1063Q548 1118 507 1155T390
1192Q332 1192 286 1169T224 1082H128Q137 1152 173 1195T264 1258T388 1278Q463 1278 522 1252T615 1179T649 1072Q649 1012 615 970T517 904Q588 884 633 837T679 716Q679 651 645 601T549 523T400 494Z"/>
            <glyph unicode="&#xb4;" horiz-adv-x="648" d="M180 1125L102 1188L438 1539L547 1450L180 1125Z"/>
            <glyph unicode="&#xb5;" horiz-adv-x="1211"
                   d="M852 958H1008V0H852V958ZM174 958H330V362Q330 242 388 180T556 118Q646 118 712 166T815 298T852 492H910Q910 331 864 217T733 43T534 -18Q426 -18 345 22T219 143T174 350V958ZM174 -406V958H330V-406H174Z"/>
            <glyph unicode="&#xb6;" horiz-adv-x="1200"
                   d="M538 484Q330 484 221 587T112 869Q112 1047 221 1151T538 1256H923V1118H630V484H538ZM557 -252V1256H679V-252H557ZM834 -252V1256H955V-252H834Z"/>
            <glyph unicode="&#xb7;" horiz-adv-x="357"
                   d="M60 510Q60 557 93 591T176 625Q226 625 261 591T296 510Q296 463 261 431T176 399Q126 399 93 431T60 510Z"/>
            <glyph unicode="&#xb8;" horiz-adv-x="624"
                   d="M102 -356L129 -290Q203 -329 262 -334T356 -320T395 -265Q398 -230 369 -204T293 -160T198 -131L269 56L358 48L291 -127L255 -70Q345 -90 406 -119T497 -186T523 -272Q519 -329 475 -363T364 -408T228 -406T102 -356Z"/>
            <glyph unicode="&#xb9;" horiz-adv-x="517"
                   d="M238 1260H314V501H220V1149Q191 1129 160 1119T96 1107V1199Q134 1204 169 1218T238 1260Z"/>
            <glyph unicode="&#xba;" horiz-adv-x="1093" d="M548 -24Q419 -24 319 33T160 202T102 478Q102 643 160 754T318 923T548 980Q676 980 776 923T934 755T992 478Q992 314 935 202T777 33T548 -24ZM544 112Q637 112 702 156T800 283T834 478Q834 649 763 747T552
846Q458 846 394 802T296 675T262 478Q262 309 333 211T544 112Z"/>
            <glyph unicode="&#xbb;" horiz-adv-x="1143"
                   d="M895 502L515 884L633 959L1042 530L633 101L515 176L895 558V502ZM482 502L102 884L220 959L629 530L220 101L102 176L482 558V502Z"/>
            <glyph unicode="&#xbc;" horiz-adv-x="1774" d="M239 1359H314V600H220V1248Q191 1228 160 1218T96 1206V1298Q134 1303 170 1317T239 1359ZM250 -16L1204 1349H1326L370 -16H250ZM1512 767H1599V264H1731V184H1599V0H1507V184H1115V257L1512 767ZM1510 619L1228
257H1510V619Z"/>
            <glyph unicode="&#xbd;" horiz-adv-x="1865" d="M239 1359H314V600H220V1248Q191 1228 160 1218T96 1206V1298Q134 1303 170 1317T239 1359ZM250 -16L1204 1349H1326L370 -16H250ZM1191 0V112Q1191 210 1238 261T1365 344L1514 404Q1572 427 1600 464T1629 556Q1629
614 1589 650T1478 687Q1406 687 1361 657T1309 565H1205Q1209 631 1243 676T1337 746T1477 770Q1550 770 1607 742T1698 665T1732 550Q1732 462 1685 408T1554 319L1401 258Q1343 236 1314 205T1285 123V87H1725V0H1191Z"/>
            <glyph unicode="&#xbe;" horiz-adv-x="2059" d="M400 576Q324 576 257 604T148 687T106 821H202Q204 744 261 703T400 662Q484 662 530 703T577 806Q577 865 533 902T387 940H301V1015H359Q447 1015 497 1050T548 1146Q548 1200 507 1237T390 1275Q332 1275 287
1251T224 1164H128Q142 1269 214 1315T388 1361Q501 1361 575 1303T649 1154Q649 1095 615 1053T517 987Q588 966 633 920T679 799Q679 702 604 639T400 576ZM535 -16L1489 1349H1611L655 -16H535ZM1797 767H1884V264H2016V184H1884V0H1792V184H1400V257L1797 767ZM1795
619L1513 257H1795V619Z"/>
            <glyph unicode="&#xbf;" horiz-adv-x="997" d="M610 906V816Q610 729 592 673T530 576T412 494Q345 458 305 427T248 360T230 272Q230 194 293 142T468 90Q591 90 656 138T738 274H904Q890 128 782 38T472 -52Q344 -52 252 -8T110 111T60 276Q60 379 112 448T280
580Q347 617 385 648T440 720T456 826V906H610ZM530 1250Q580 1250 613 1218T646 1139Q646 1092 614 1058T531 1024Q481 1024 446 1057T410 1138Q410 1184 445 1217T530 1250Z"/>
            <glyph unicode="&#xc0;" horiz-adv-x="1149"
                   d="M52 0L484 1256H674L1096 0H932L826 322H326L216 0H52ZM366 444H786L576 1066L366 444ZM729 1425L362 1750L471 1839L807 1488L729 1425Z"/>
            <glyph unicode="&#xc1;" horiz-adv-x="1149"
                   d="M52 0L484 1256H674L1096 0H932L826 322H326L216 0H52ZM366 444H786L576 1066L366 444ZM522 1419L444 1482L780 1833L889 1744L522 1419Z"/>
            <glyph unicode="&#xc2;" horiz-adv-x="1149"
                   d="M52 0L484 1256H674L1096 0H932L826 322H326L216 0H52ZM366 444H786L576 1066L366 444ZM357 1382L263 1456L580 1767L898 1456L805 1382L553 1637H607L357 1382Z"/>
            <glyph unicode="&#xc3;" horiz-adv-x="1149" d="M52 0L484 1256H674L1096 0H932L826 322H326L216 0H52ZM366 444H786L576 1066L366 444ZM330 1411L266 1452Q290 1552 336 1605T444 1658Q470 1658 498 1649T590 1606Q652 1574 676 1564T722 1554Q751 1554 779 1579T828
1658L896 1612Q881 1549 855 1504T795 1435T726 1411Q696 1411 663 1423T564 1469Q509 1498 487 1506T444 1515Q413 1515 385 1493T330 1411Z"/>
            <glyph unicode="&#xc4;" horiz-adv-x="1149" d="M52 0L484 1256H674L1096 0H932L826 322H326L216 0H52ZM366 444H786L576 1066L366 444ZM747 1439Q704 1439 674 1467T643 1538Q643 1580 673 1610T747 1640Q792 1640 822 1610T853 1538Q853 1496 823 1468T747 1439ZM413
1439Q368 1439 339 1467T309 1536Q309 1580 338 1609T413 1638Q458 1638 488 1609T519 1536Q519 1496 489 1468T413 1439Z"/>
            <glyph unicode="&#xc5;" horiz-adv-x="1149" d="M52 0L484 1256H674L1096 0H932L826 322H326L216 0H52ZM366 444H786L576 1066L366 444ZM581 1368Q526 1368 481 1395T408 1467T381 1568Q381 1623 408 1668T480 1741T581 1769Q636 1769 681 1742T754 1669T782 1568Q782
1513 755 1468T682 1395T581 1368ZM581 1480Q619 1480 644 1505T670 1568Q670 1606 645 1631T581 1657Q544 1657 519 1632T493 1568Q493 1531 518 1506T581 1480Z"/>
            <glyph unicode="&#xc6;" horiz-adv-x="1681"
                   d="M1531 1256V1122H919L948 1149V637L919 692H1494V558H919L948 600V69L919 137H1531V0H792V372L821 322H335L412 366L268 0H107L601 1256H1531ZM821 444L792 397L791 1147L821 1122H666L731 1176L429 410L391 444H821Z"/>
            <glyph unicode="&#xc7;" horiz-adv-x="1226" d="M638 -24Q472 -24 352 59T167 291T102 636Q102 845 172 988T364 1204T638 1278Q839 1278 961 1178T1130 916L962 882Q923 999 838 1068T638 1138Q539 1138 456 1082T321 913T270 636Q270 486 310 369T432 185T638
118Q787 118 874 198T962 408H1132Q1132 273 1070 177T897 28T638 -24ZM451 -356L478 -290Q552 -329 611 -334T705 -320T744 -265Q747 -230 718 -204T642 -160T547 -131L618 56L707 48L640 -127L604 -70Q694 -90 755 -119T846 -186T872 -272Q868 -329 824 -363T713
-408T577 -406T451 -356Z"/>
            <glyph unicode="&#xc8;" horiz-adv-x="1124"
                   d="M200 0V1256H974V1122H356V700H938V566H356V136H974V0H200ZM710 1425L343 1750L452 1839L788 1488L710 1425Z"/>
            <glyph unicode="&#xc9;" horiz-adv-x="1124"
                   d="M200 0V1256H974V1122H356V700H938V566H356V136H974V0H200ZM503 1419L425 1482L761 1833L870 1744L503 1419Z"/>
            <glyph unicode="&#xca;" horiz-adv-x="1124"
                   d="M200 0V1256H974V1122H356V700H938V566H356V136H974V0H200ZM338 1382L244 1456L561 1767L879 1456L786 1382L534 1637H588L338 1382Z"/>
            <glyph unicode="&#xcb;" horiz-adv-x="1124" d="M200 0V1256H974V1122H356V700H938V566H356V136H974V0H200ZM728 1439Q685 1439 655 1467T624 1538Q624 1580 654 1610T728 1640Q773 1640 803 1610T834 1538Q834 1496 804 1468T728 1439ZM394 1439Q349 1439 320
1467T290 1536Q290 1580 319 1609T394 1638Q439 1638 469 1609T500 1536Q500 1496 470 1468T394 1439Z"/>
            <glyph unicode="&#xcc;" horiz-adv-x="560"
                   d="M202 0V1256H358V0H202ZM428 1425L61 1750L170 1839L506 1488L428 1425Z"/>
            <glyph unicode="&#xcd;" horiz-adv-x="560"
                   d="M202 0V1256H358V0H202ZM221 1419L143 1482L479 1833L588 1744L221 1419Z"/>
            <glyph unicode="&#xce;" horiz-adv-x="560"
                   d="M202 0V1256H358V0H202ZM56 1382L-38 1456L279 1767L597 1456L504 1382L252 1637H306L56 1382Z"/>
            <glyph unicode="&#xcf;" horiz-adv-x="560" d="M202 0V1256H358V0H202ZM446 1439Q403 1439 373 1467T342 1538Q342 1580 372 1610T446 1640Q491 1640 521 1610T552 1538Q552 1496 522 1468T446 1439ZM112 1439Q67 1439 38 1467T8 1536Q8 1580 37 1609T112 1638Q157
1638 187 1609T218 1536Q218 1496 188 1468T112 1439Z"/>
            <glyph unicode="&#xd0;" horiz-adv-x="1320"
                   d="M44 695H669V561H44V695ZM202 1256H570Q760 1256 900 1179T1117 960T1194 628Q1194 439 1117 298T900 79T570 0H202V1256ZM358 1118V136H570Q712 136 814 200T972 375T1028 628Q1028 770 973 880T815 1054T570 1118H358Z"/>
            <glyph unicode="&#xd1;" horiz-adv-x="1368" d="M200 1256H386L1024 222H1010V1256H1166V0H992L332 1068H356V0H200V1256ZM433 1411L369 1452Q393 1552 439 1605T547 1658Q573 1658 601 1649T693 1606Q755 1574 779 1564T825 1554Q854 1554 882 1579T931 1658L999
1612Q984 1549 958 1504T898 1435T829 1411Q799 1411 766 1423T667 1469Q612 1498 590 1506T547 1515Q516 1515 488 1493T433 1411Z"/>
            <glyph unicode="&#xd2;" horiz-adv-x="1291" d="M646 -24Q490 -24 367 48T173 264T102 626Q102 846 173 990T367 1206T646 1278Q802 1278 925 1206T1119 989T1190 626Q1190 407 1119 263T925 47T646 -24ZM646 120Q823 120 925 249T1028 628Q1028 873 926 1005T646
1138Q471 1138 368 1005T264 626Q264 377 367 249T646 120ZM801 1425L434 1750L543 1839L879 1488L801 1425Z"/>
            <glyph unicode="&#xd3;" horiz-adv-x="1291" d="M646 -24Q490 -24 367 48T173 264T102 626Q102 846 173 990T367 1206T646 1278Q802 1278 925 1206T1119 989T1190 626Q1190 407 1119 263T925 47T646 -24ZM646 120Q823 120 925 249T1028 628Q1028 873 926 1005T646
1138Q471 1138 368 1005T264 626Q264 377 367 249T646 120ZM594 1419L516 1482L852 1833L961 1744L594 1419Z"/>
            <glyph unicode="&#xd4;" horiz-adv-x="1291" d="M646 -24Q490 -24 367 48T173 264T102 626Q102 846 173 990T367 1206T646 1278Q802 1278 925 1206T1119 989T1190 626Q1190 407 1119 263T925 47T646 -24ZM646 120Q823 120 925 249T1028 628Q1028 873 926 1005T646
1138Q471 1138 368 1005T264 626Q264 377 367 249T646 120ZM429 1382L335 1456L652 1767L970 1456L877 1382L625 1637H679L429 1382Z"/>
            <glyph unicode="&#xd5;" horiz-adv-x="1291" d="M646 -24Q490 -24 367 48T173 264T102 626Q102 846 173 990T367 1206T646 1278Q802 1278 925 1206T1119 989T1190 626Q1190 407 1119 263T925 47T646 -24ZM646 120Q823 120 925 249T1028 628Q1028 873 926 1005T646
1138Q471 1138 368 1005T264 626Q264 377 367 249T646 120ZM402 1411L338 1452Q362 1552 408 1605T516 1658Q542 1658 570 1649T662 1606Q724 1574 748 1564T794 1554Q823 1554 851 1579T900 1658L968 1612Q953 1549 927 1504T867 1435T798 1411Q768 1411 735 1423T636
1469Q581 1498 559 1506T516 1515Q485 1515 457 1493T402 1411Z"/>
            <glyph unicode="&#xd6;" horiz-adv-x="1291" d="M646 -24Q490 -24 367 48T173 264T102 626Q102 846 173 990T367 1206T646 1278Q802 1278 925 1206T1119 989T1190 626Q1190 407 1119 263T925 47T646 -24ZM646 120Q823 120 925 249T1028 628Q1028 873 926 1005T646
1138Q471 1138 368 1005T264 626Q264 377 367 249T646 120ZM819 1439Q776 1439 746 1467T715 1538Q715 1580 745 1610T819 1640Q864 1640 894 1610T925 1538Q925 1496 895 1468T819 1439ZM485 1439Q440 1439 411 1467T381 1536Q381 1580 410 1609T485 1638Q530
1638 560 1609T591 1536Q591 1496 561 1468T485 1439Z"/>
            <glyph unicode="&#xd7;" horiz-adv-x="1055"
                   d="M242 110L134 220L418 506L134 788L242 898L528 614L812 898L922 788L636 506L922 220L812 110L528 394L242 110Z"/>
            <glyph unicode="&#xd8;" horiz-adv-x="1291" d="M92 0L1047 1258H1185L227 0H92ZM645 -24Q489 -24 366 48T172 264T101 626Q101 846 172 990T366 1206T645 1278Q801 1278 924 1206T1118 989T1189 626Q1189 407 1118 263T924 47T645 -24ZM645 120Q822 120 924 249T1027
628Q1027 873 925 1005T645 1138Q470 1138 367 1005T263 626Q263 377 366 249T645 120Z"/>
            <glyph unicode="&#xd9;" horiz-adv-x="1306"
                   d="M174 1256H330V454Q330 277 419 199T652 120Q795 120 883 198T972 454V1256H1128V454Q1128 296 1070 190T904 30T652 -24Q507 -24 400 29T233 189T174 454V1256ZM801 1425L434 1750L543 1839L879 1488L801 1425Z"/>
            <glyph unicode="&#xda;" horiz-adv-x="1306"
                   d="M174 1256H330V454Q330 277 419 199T652 120Q795 120 883 198T972 454V1256H1128V454Q1128 296 1070 190T904 30T652 -24Q507 -24 400 29T233 189T174 454V1256ZM594 1419L516 1482L852 1833L961 1744L594 1419Z"/>
            <glyph unicode="&#xdb;" horiz-adv-x="1306" d="M174 1256H330V454Q330 277 419 199T652 120Q795 120 883 198T972 454V1256H1128V454Q1128 296 1070 190T904 30T652 -24Q507 -24 400 29T233 189T174 454V1256ZM429 1382L335 1456L652 1767L970 1456L877 1382L625
1637H679L429 1382Z"/>
            <glyph unicode="&#xdc;" horiz-adv-x="1306" d="M174 1256H330V454Q330 277 419 199T652 120Q795 120 883 198T972 454V1256H1128V454Q1128 296 1070 190T904 30T652 -24Q507 -24 400 29T233 189T174 454V1256ZM819 1439Q776 1439 746 1467T715 1538Q715 1580
745 1610T819 1640Q864 1640 894 1610T925 1538Q925 1496 895 1468T819 1439ZM485 1439Q440 1439 411 1467T381 1536Q381 1580 410 1609T485 1638Q530 1638 560 1609T591 1536Q591 1496 561 1468T485 1439Z"/>
            <glyph unicode="&#xdd;" horiz-adv-x="1097"
                   d="M18 1256H206L566 646H526L892 1256H1078L624 516V0H466V516L18 1256ZM490 1419L412 1482L748 1833L857 1744L490 1419Z"/>
            <glyph unicode="&#xde;" horiz-adv-x="1107"
                   d="M198 0V1256H356V1011L320 1046H602Q809 1046 918 942T1028 658Q1028 481 919 378T602 274H320L356 309V0H198ZM356 375L320 410H602Q733 410 800 477T868 658Q868 774 801 843T602 912H320L356 948V375Z"/>
            <glyph unicode="&#xdf;" horiz-adv-x="1227" d="M968 1076Q968 1001 940 952T874 867T809 800T780 729Q780 689 813 658T894 597T991 527T1073 432T1106 291Q1106 198 1061 127T942 16T776 -24Q719 -24 647 -8T519 37L522 171Q578 131 639 111T755 91Q820 91 860
116T919 183T938 270Q938 338 907 385T829 469T736 538T658 612T626 707Q626 761 655 800T724 874T792 952T822 1057Q822 1135 764 1188T595 1241Q475 1241 417 1167T358 923V0H202V926Q202 1065 248 1163T383 1313T606 1365Q726 1365 806 1326T927 1222T968 1076Z"
            />
            <glyph unicode="&#xe0;" horiz-adv-x="1101" d="M794 0L774 210V620Q774 749 719 805T554 862Q492 862 442 844T362 789T332 692H158Q158 796 209 859T349 951T554 980Q664 980 749 943T882 826T930 616V0H794ZM468 -24Q350 -24 273 18T158 127T120 268Q120 365
168 426T301 515T490 544Q565 544 640 529T788 488V390Q728 414 653 428T514 442Q418 442 352 403T286 268Q286 198 336 148T498 98Q576 98 638 134T737 226T774 336H812Q812 240 771 158T652 26T468 -24ZM698 1125L331 1450L440 1539L776 1188L698 1125Z"/>
            <glyph unicode="&#xe1;" horiz-adv-x="1101" d="M794 0L774 210V620Q774 749 719 805T554 862Q492 862 442 844T362 789T332 692H158Q158 796 209 859T349 951T554 980Q664 980 749 943T882 826T930 616V0H794ZM468 -24Q350 -24 273 18T158 127T120 268Q120 365
168 426T301 515T490 544Q565 544 640 529T788 488V390Q728 414 653 428T514 442Q418 442 352 403T286 268Q286 198 336 148T498 98Q576 98 638 134T737 226T774 336H812Q812 240 771 158T652 26T468 -24ZM491 1119L413 1182L749 1533L858 1444L491 1119Z"/>
            <glyph unicode="&#xe2;" horiz-adv-x="1101" d="M794 0L774 210V620Q774 749 719 805T554 862Q492 862 442 844T362 789T332 692H158Q158 796 209 859T349 951T554 980Q664 980 749 943T882 826T930 616V0H794ZM468 -24Q350 -24 273 18T158 127T120 268Q120 365
168 426T301 515T490 544Q565 544 640 529T788 488V390Q728 414 653 428T514 442Q418 442 352 403T286 268Q286 198 336 148T498 98Q576 98 638 134T737 226T774 336H812Q812 240 771 158T652 26T468 -24ZM326 1082L232 1156L549 1467L867 1156L774 1082L522 1337H576L326
1082Z"/>
            <glyph unicode="&#xe3;" horiz-adv-x="1101" d="M794 0L774 210V620Q774 749 719 805T554 862Q492 862 442 844T362 789T332 692H158Q158 796 209 859T349 951T554 980Q664 980 749 943T882 826T930 616V0H794ZM468 -24Q350 -24 273 18T158 127T120 268Q120 365
168 426T301 515T490 544Q565 544 640 529T788 488V390Q728 414 653 428T514 442Q418 442 352 403T286 268Q286 198 336 148T498 98Q576 98 638 134T737 226T774 336H812Q812 240 771 158T652 26T468 -24ZM299 1111L235 1152Q259 1252 305 1305T413 1358Q439 1358
467 1349T559 1306Q621 1274 645 1264T691 1254Q720 1254 748 1279T797 1358L865 1312Q850 1249 824 1204T764 1135T695 1111Q665 1111 632 1123T533 1169Q478 1198 456 1206T413 1215Q382 1215 354 1193T299 1111Z"/>
            <glyph unicode="&#xe4;" horiz-adv-x="1101" d="M794 0L774 210V620Q774 749 719 805T554 862Q492 862 442 844T362 789T332 692H158Q158 796 209 859T349 951T554 980Q664 980 749 943T882 826T930 616V0H794ZM468 -24Q350 -24 273 18T158 127T120 268Q120 365
168 426T301 515T490 544Q565 544 640 529T788 488V390Q728 414 653 428T514 442Q418 442 352 403T286 268Q286 198 336 148T498 98Q576 98 638 134T737 226T774 336H812Q812 240 771 158T652 26T468 -24ZM716 1139Q673 1139 643 1167T612 1238Q612 1280 642 1310T716
1340Q761 1340 791 1310T822 1238Q822 1196 792 1168T716 1139ZM382 1139Q337 1139 308 1167T278 1236Q278 1280 307 1309T382 1338Q427 1338 457 1309T488 1236Q488 1196 458 1168T382 1139Z"/>
            <glyph unicode="&#xe5;" horiz-adv-x="1101" d="M794 0L774 210V620Q774 749 719 805T554 862Q492 862 442 844T362 789T332 692H158Q158 796 209 859T349 951T554 980Q664 980 749 943T882 826T930 616V0H794ZM468 -24Q350 -24 273 18T158 127T120 268Q120 365
168 426T301 515T490 544Q565 544 640 529T788 488V390Q728 414 653 428T514 442Q418 442 352 403T286 268Q286 198 336 148T498 98Q576 98 638 134T737 226T774 336H812Q812 240 771 158T652 26T468 -24ZM550 1068Q495 1068 450 1095T377 1167T350 1268Q350 1323
377 1368T449 1441T550 1469Q605 1469 650 1442T723 1369T751 1268Q751 1213 724 1168T651 1095T550 1068ZM550 1180Q588 1180 613 1205T639 1268Q639 1306 614 1331T550 1357Q513 1357 488 1332T462 1268Q462 1231 487 1206T550 1180Z"/>
            <glyph unicode="&#xe6;" horiz-adv-x="1694" d="M788 302H767V620Q767 748 711 805T548 862Q488 862 439 844T361 789T332 692H158Q158 796 209 859T343 951T521 980Q639 980 722 939T849 813T893 599V393L788 302ZM460 -24Q353 -24 277 15T161 122T120 273Q120
366 168 426T298 515T480 544Q557 544 634 528T781 488V390Q722 414 645 428T508 442Q416 442 351 402T286 272Q286 199 335 149T482 98Q566 98 630 134T730 225T767 336H869Q869 246 819 164T678 29T460 -24ZM1210 -24Q1080 -24 982 41T828 220T772 482Q772 629
827 741T979 917T1203 980Q1310 980 1387 936T1511 817T1577 648T1587 452H895V548H1484L1438 518Q1441 577 1432 636T1396 744T1323 824T1202 854Q1111 854 1050 807T957 684T925 518V454Q925 354 955 275T1047 150T1203 104Q1291 104 1352 147T1427 282H1589Q1575
189 1522 120T1388 14T1210 -24Z"/>
            <glyph unicode="&#xe7;" horiz-adv-x="1032" d="M538 -24Q423 -24 324 38T163 213T102 480Q102 638 163 750T323 921T538 980Q619 980 683 956T796 888T875 791T922 676L762 662Q737 745 679 793T536 842Q465 842 403 802T301 681T262 480Q262 369 297 288T395
161T536 116Q647 116 704 170T762 322H922Q922 222 875 144T742 21T538 -24ZM341 -355L368 -289Q442 -328 501 -333T595 -319T634 -264Q637 -229 608 -203T532 -159T437 -130L508 57L597 49L530 -126L494 -69Q584 -89 645 -118T736 -185T762 -271Q758 -328 714
-362T603 -407T467 -405T341 -355Z"/>
            <glyph unicode="&#xe8;" horiz-adv-x="1027" d="M534 -24Q410 -24 313 39T159 216T102 476Q102 633 158 746T311 919T534 980Q643 980 720 936T844 817T909 648T920 452H228V548H817L771 518Q774 577 765 636T729 744T656 824T536 854Q444 854 382 807T289 684T258
518V454Q258 354 288 275T380 150T534 104Q627 104 687 149T760 282H922Q907 187 854 119T719 13T534 -24ZM662 1125L295 1450L404 1539L740 1188L662 1125Z"/>
            <glyph unicode="&#xe9;" horiz-adv-x="1027" d="M534 -24Q410 -24 313 39T159 216T102 476Q102 633 158 746T311 919T534 980Q643 980 720 936T844 817T909 648T920 452H228V548H817L771 518Q774 577 765 636T729 744T656 824T536 854Q444 854 382 807T289 684T258
518V454Q258 354 288 275T380 150T534 104Q627 104 687 149T760 282H922Q907 187 854 119T719 13T534 -24ZM455 1119L377 1182L713 1533L822 1444L455 1119Z"/>
            <glyph unicode="&#xea;" horiz-adv-x="1027" d="M534 -24Q410 -24 313 39T159 216T102 476Q102 633 158 746T311 919T534 980Q643 980 720 936T844 817T909 648T920 452H228V548H817L771 518Q774 577 765 636T729 744T656 824T536 854Q444 854 382 807T289 684T258
518V454Q258 354 288 275T380 150T534 104Q627 104 687 149T760 282H922Q907 187 854 119T719 13T534 -24ZM290 1338L196 1412L513 1723L831 1412L738 1338L486 1593H540L290 1338Z"/>
            <glyph unicode="&#xeb;" horiz-adv-x="1027" d="M534 -24Q410 -24 313 39T159 216T102 476Q102 633 158 746T311 919T534 980Q643 980 720 936T844 817T909 648T920 452H228V548H817L771 518Q774 577 765 636T729 744T656 824T536 854Q444 854 382 807T289 684T258
518V454Q258 354 288 275T380 150T534 104Q627 104 687 149T760 282H922Q907 187 854 119T719 13T534 -24ZM680 1139Q637 1139 607 1167T576 1238Q576 1280 606 1310T680 1340Q725 1340 755 1310T786 1238Q786 1196 756 1168T680 1139ZM346 1139Q301 1139 272 1167T242
1236Q242 1280 271 1309T346 1338Q391 1338 421 1309T452 1236Q452 1196 422 1168T346 1139Z"/>
            <glyph unicode="&#xec;" horiz-adv-x="596"
                   d="M212 0V958H368V0H212ZM693 1125L326 1450L435 1539L771 1188L693 1125Z"/>
            <glyph unicode="&#xed;" horiz-adv-x="596"
                   d="M212 0V958H368V0H212ZM230 1375L152 1438L488 1789L597 1700L230 1375Z"/>
            <glyph unicode="&#xee;" horiz-adv-x="596"
                   d="M212 0V958H368V0H212ZM65 1082L-29 1156L288 1467L606 1156L513 1082L261 1337H315L65 1082Z"/>
            <glyph unicode="&#xef;" horiz-adv-x="596" d="M212 0V958H368V0H212ZM711 1139Q668 1139 638 1167T607 1238Q607 1280 637 1310T711 1340Q756 1340 786 1310T817 1238Q817 1196 787 1168T711 1139ZM377 1139Q332 1139 303 1167T273 1236Q273 1280 302 1309T377
1338Q422 1338 452 1309T483 1236Q483 1196 453 1168T377 1139Z"/>
            <glyph unicode="&#xf0;" horiz-adv-x="1122" d="M547 -24Q431 -24 334 38T177 215T118 483Q118 635 175 746T326 919T531 980Q640 980 725 922T859 761T908 519H849Q848 630 805 701T696 807T563 842Q484 842 420 799T317 674T278 480Q278 368 316 287T419 161T566
116Q654 116 714 166T807 303T847 500Q855 664 830 813T749 1094T608 1333T411 1522L531 1618Q636 1535 722 1422T871 1177T967 902T1001 614Q1001 467 967 349T871 148T727 21T547 -24ZM443 1117L395 1218L972 1498L1020 1397L443 1117Z"/>
            <glyph unicode="&#xf1;" horiz-adv-x="1207" d="M882 0V562Q882 699 817 770T638 842Q552 842 489 795T392 661T358 452H298Q298 619 342 737T470 917T676 980Q789 980 869 930T993 785T1036 562V0H882ZM202 0V956H336L358 736V0H202ZM380 1125L316 1166Q340 1266
386 1319T494 1372Q520 1372 548 1363T640 1320Q702 1288 726 1278T772 1268Q801 1268 829 1293T878 1372L946 1326Q931 1263 905 1218T845 1149T776 1125Q746 1125 713 1137T614 1183Q559 1212 537 1220T494 1229Q463 1229 435 1207T380 1125Z"/>
            <glyph unicode="&#xf2;" horiz-adv-x="1093" d="M548 -24Q419 -24 319 33T160 202T102 478Q102 643 160 754T318 923T548 980Q676 980 776 923T934 755T992 478Q992 314 935 202T777 33T548 -24ZM544 112Q637 112 702 156T800 283T834 478Q834 649 763 747T552
846Q458 846 394 802T296 675T262 478Q262 309 333 211T544 112ZM695 1125L328 1450L437 1539L773 1188L695 1125Z"/>
            <glyph unicode="&#xf3;" horiz-adv-x="1093" d="M548 -24Q419 -24 319 33T160 202T102 478Q102 643 160 754T318 923T548 980Q676 980 776 923T934 755T992 478Q992 314 935 202T777 33T548 -24ZM544 112Q637 112 702 156T800 283T834 478Q834 649 763 747T552
846Q458 846 394 802T296 675T262 478Q262 309 333 211T544 112ZM488 1119L410 1182L746 1533L855 1444L488 1119Z"/>
            <glyph unicode="&#xf4;" horiz-adv-x="1093" d="M548 -24Q419 -24 319 33T160 202T102 478Q102 643 160 754T318 923T548 980Q676 980 776 923T934 755T992 478Q992 314 935 202T777 33T548 -24ZM544 112Q637 112 702 156T800 283T834 478Q834 649 763 747T552
846Q458 846 394 802T296 675T262 478Q262 309 333 211T544 112ZM323 1338L229 1412L546 1723L864 1412L771 1338L519 1593H573L323 1338Z"/>
            <glyph unicode="&#xf5;" horiz-adv-x="1093" d="M548 -24Q419 -24 319 33T160 202T102 478Q102 643 160 754T318 923T548 980Q676 980 776 923T934 755T992 478Q992 314 935 202T777 33T548 -24ZM544 112Q637 112 702 156T800 283T834 478Q834 649 763 747T552
846Q458 846 394 802T296 675T262 478Q262 309 333 211T544 112ZM296 1111L232 1152Q256 1252 302 1305T410 1358Q436 1358 464 1349T556 1306Q618 1274 642 1264T688 1254Q717 1254 745 1279T794 1358L862 1312Q847 1249 821 1204T761 1135T692 1111Q662 1111
629 1123T530 1169Q475 1198 453 1206T410 1215Q379 1215 351 1193T296 1111Z"/>
            <glyph unicode="&#xf6;" horiz-adv-x="1093" d="M548 -24Q419 -24 319 33T160 202T102 478Q102 643 160 754T318 923T548 980Q676 980 776 923T934 755T992 478Q992 314 935 202T777 33T548 -24ZM544 112Q637 112 702 156T800 283T834 478Q834 649 763 747T552
846Q458 846 394 802T296 675T262 478Q262 309 333 211T544 112ZM713 1139Q670 1139 640 1167T609 1238Q609 1280 639 1310T713 1340Q758 1340 788 1310T819 1238Q819 1196 789 1168T713 1139ZM379 1139Q334 1139 305 1167T275 1236Q275 1280 304 1309T379 1338Q424
1338 454 1309T485 1236Q485 1196 455 1168T379 1139Z"/>
            <glyph unicode="&#xf7;" horiz-adv-x="1031" d="M166 452V588H864V452H166ZM514 140Q471 140 442 169T412 238Q412 279 441 308T514 338Q559 338 588 309T618 238Q618 198 589 169T514 140ZM514 700Q471 700 442 728T412 798Q412 839 441 867T514 896Q559 896
588 868T618 798Q618 756 589 728T514 700Z"/>
            <glyph unicode="&#xf8;" horiz-adv-x="1093" d="M548 -24Q419 -24 319 33T160 202T102 478Q102 643 160 754T318 923T548 980Q676 980 776 923T934 755T992 478Q992 314 935 202T777 33T548 -24ZM544 112Q637 112 702 156T800 283T834 478Q834 649 763 747T552
846Q458 846 394 802T296 675T262 478Q262 309 333 211T544 112ZM77 0L877 957H1023L219 0H77Z"/>
            <glyph unicode="&#xf9;" horiz-adv-x="1211" d="M852 958H1008V0H852V958ZM174 958H330V362Q330 242 388 180T556 118Q646 118 712 166T815 298T852 492H910Q910 331 864 217T733 43T534 -18Q426 -18 345 22T219 143T174 350V958ZM772 1125L405 1450L514 1539L850
1188L772 1125Z"/>
            <glyph unicode="&#xfa;" horiz-adv-x="1211" d="M852 958H1008V0H852V958ZM174 958H330V362Q330 242 388 180T556 118Q646 118 712 166T815 298T852 492H910Q910 331 864 217T733 43T534 -18Q426 -18 345 22T219 143T174 350V958ZM565 1119L487 1182L823 1533L932
1444L565 1119Z"/>
            <glyph unicode="&#xfb;" horiz-adv-x="1211" d="M852 958H1008V0H852V958ZM174 958H330V362Q330 242 388 180T556 118Q646 118 712 166T815 298T852 492H910Q910 331 864 217T733 43T534 -18Q426 -18 345 22T219 143T174 350V958ZM400 1082L306 1156L623 1467L941
1156L848 1082L596 1337H650L400 1082Z"/>
            <glyph unicode="&#xfc;" horiz-adv-x="1211" d="M852 958H1008V0H852V958ZM174 958H330V362Q330 242 388 180T556 118Q646 118 712 166T815 298T852 492H910Q910 331 864 217T733 43T534 -18Q426 -18 345 22T219 143T174 350V958ZM790 1139Q747 1139 717 1167T686
1238Q686 1280 716 1310T790 1340Q835 1340 865 1310T896 1238Q896 1196 866 1168T790 1139ZM456 1139Q411 1139 382 1167T352 1236Q352 1280 381 1309T456 1338Q501 1338 531 1309T562 1236Q562 1196 532 1168T456 1139Z"/>
            <glyph unicode="&#xfd;" horiz-adv-x="931" d="M44 956H218L530 136H494L736 956H896L536 -192Q491 -336 416 -414T224 -492Q161 -492 105 -474T-12 -422V-278Q41 -320 90 -338T194 -356Q254 -356 294 -318T362 -221T408 -96L436 0L44 956ZM407 1119L329 1182L665
1533L774 1444L407 1119Z"/>
            <glyph unicode="&#xfe;" horiz-adv-x="1200" d="M636 -24Q531 -24 454 24T334 164T292 390H358Q358 301 395 240T491 148T618 116Q690 116 756 157T864 280T906 480Q906 594 868 675T764 799T620 842Q552 842 492 809T395 713T358 556H292Q292 695 338 789T463
932T640 980Q752 980 849 920T1006 748T1066 480Q1066 322 1006 209T847 36T636 -24ZM202 -470V1256H358V-470H202Z"/>
            <glyph unicode="&#xff;" horiz-adv-x="931" d="M44 956H218L530 136H494L736 956H896L536 -192Q491 -336 416 -414T224 -492Q161 -492 105 -474T-12 -422V-278Q41 -320 90 -338T194 -356Q254 -356 294 -318T362 -221T408 -96L436 0L44 956ZM632 1139Q589 1139
559 1167T528 1238Q528 1280 558 1310T632 1340Q677 1340 707 1310T738 1238Q738 1196 708 1168T632 1139ZM298 1139Q253 1139 224 1167T194 1236Q194 1280 223 1309T298 1338Q343 1338 373 1309T404 1236Q404 1196 374 1168T298 1139Z"/>
            <glyph unicode="&#x2013;" horiz-adv-x="945" d="M110 514V650H836V514H110Z"/>
            <glyph unicode="&#x2014;" horiz-adv-x="1449" d="M110 514V650H1342V514H110Z"/>
            <glyph unicode="&#x2018;" horiz-adv-x="425"
                   d="M210 838Q170 838 139 859T90 916T72 996Q72 1068 119 1137T254 1252L366 1192Q309 1164 270 1127T216 1040Q263 1036 292 1012T322 944Q322 901 292 870T210 838Z"/>
            <glyph unicode="&#x2019;" horiz-adv-x="425"
                   d="M142 838L30 898Q87 927 126 963T178 1048Q133 1053 103 1079T72 1148Q72 1192 105 1222T188 1252Q230 1252 260 1231T306 1174T322 1094Q322 1022 275 954T142 838Z"/>
            <glyph unicode="&#x201a;" horiz-adv-x="469"
                   d="M190 -218L72 -160Q129 -131 168 -96T220 -10Q177 -5 147 21T116 90Q116 132 147 162T228 192Q290 192 328 147T366 40Q366 -33 322 -103T190 -218Z"/>
            <glyph unicode="&#x201c;" horiz-adv-x="803" d="M544 838Q504 838 473 859T424 916T406 996Q406 1068 453 1137T588 1252L700 1192Q643 1164 604 1127T550 1040Q597 1036 626 1012T656 944Q656 901 626 870T544 838ZM210 838Q170 838 139 859T90 916T72 996Q72
1068 119 1137T254 1252L366 1192Q309 1164 270 1127T216 1040Q263 1036 292 1012T322 944Q322 901 292 870T210 838Z"/>
            <glyph unicode="&#x201d;" horiz-adv-x="794" d="M511 838L399 898Q456 927 495 963T547 1048Q502 1053 472 1079T441 1148Q441 1192 474 1222T557 1252Q599 1252 629 1231T675 1174T691 1094Q691 1022 644 954T511 838ZM184 838L72 898Q129 927 168 963T220 1048Q175
1053 145 1079T114 1148Q114 1192 147 1222T230 1252Q272 1252 302 1231T348 1174T364 1094Q364 1022 317 954T184 838Z"/>
            <glyph unicode="&#x201e;" horiz-adv-x="872" d="M593 -218L475 -160Q532 -131 571 -96T623 -10Q580 -5 550 21T519 90Q519 132 550 162T631 192Q693 192 731 147T769 40Q769 -33 725 -103T593 -218ZM190 -218L72 -160Q129 -131 168 -96T220 -10Q177 -5 147 21T116
90Q116 132 147 162T228 192Q290 192 328 147T366 40Q366 -33 322 -103T190 -218Z"/>
            <glyph unicode="&#x2022;" horiz-adv-x="552"
                   d="M60 528Q60 613 120 675T272 737Q363 737 427 675T491 528Q491 442 427 384T272 325Q181 325 121 384T60 528Z"/>
            <glyph unicode="&#x2039;" horiz-adv-x="730"
                   d="M249 502L629 884L511 959L102 530L511 101L629 176L249 558V502Z"/>
            <glyph unicode="&#x203a;" horiz-adv-x="730"
                   d="M219 101L102 176L481 558V502L102 884L219 959L629 530L219 101Z"/>
        </font>
</defs>
</svg>
